#TITLE:Tristram;
#SUBTITLE:Diablo;
#ARTIST:Blizzard;
#TITLETRANSLIT:;
#SUBTITLETRANSLIT:;
#ARTISTTRANSLIT:;
#CREDIT:;
#BANNER:Tristram.png;
#BACKGROUND:tristram-bg.png;
#LYRICSPATH:;
#CDTITLE:cdtitle.png;
#MUSIC:Tristram.mp3;
#OFFSET:3.180;
#SAMPLESTART:55.501;
#SAMPLELENGTH:12.000;
#SELECTABLE:YES;
#BPMS:0.000=74.055,4.000=73.295,4.500=71.615,7.500=71.295,9.250=77.515,10.000=72.995,18.500=74.095,22.000=73.535,24.000=73.495,25.500=72.495,44.500=73.135,47.000=73.015,52.500=74.215,55.000=73.375,58.833=70.995,60.000=74.015,64.000=147.030,73.000=146.510,75.500=145.190,75.750=145.370,76.000=145.010,96.000=157.010,96.500=156.010,100.000=150.010,100.167=145.010,112.000=134.010,114.500=144.010,120.500=145.570,121.500=146.010,126.500=147.010,128.500=148.510,129.000=155.010,133.000=150.010,134.000=148.010,138.000=147.010,144.000=148.510,160.000=74.255;
#STOPS:;
#BGCHANGES:;
// cache tags:
#FIRSTBEAT:4.000;
#LASTBEAT:163.000;
#SONGFILENAME:Songs/Music V.I.P ^_^/Tristram (Bursurk Lurk)/Tristram.sm;
#HASMUSIC:1;
#HASBANNER:1;
#MUSICLENGTH:91.924;
// end cache tags

//---------------dance-single - ----------------
#NOTES:
     dance-single:
     :
     Hard:
     12:
     0.984,1.000,1.000,0.022,0.963,478.000,153.000,2.000,0.000,0.000:


0000
0000
0000
0000
,
1001
0010
0100
0011
1000
0100
1010
0100
1001
0100
1000
0011
0100
0010
1100
0010
,
1100
0001
0010
0101
1000
0001
1100
0010
1000
0001
1010
0100
1000
0100
0010
0001
,
1100
0010
1100
0001
0010
0100
1000
0100
1010
0001
0010
0100
1010
0101
1000
0010
,
1100
0010
0100
0001
1010
0100
1000
0001
1100
0010
1000
0001
1100
0010
1000
0100
,
1010
0000
0000
0001
0010
0100
1000
0000
0000
0011
0000
0000
0100
0000
0000
0001
0000
0000
1010
0000
0000
0100
0000
0000
1001
0000
0000
0010
0000
0000
0100
0000
0000
0011
0000
0000
1000
0000
0000
0100
0000
0000
1010
0000
0000
0001
0000
0000
,
1100
0010
0100
1001
0010
0100
1010
0001
0100
0001
1010
0101
1010
0011
1100
0010
,
0100
0000
0000
0000
,
0010
0010
0010
0010
,
0010
0010
0010
0010
0010
0100
1000
0001
,
0011
0100
1010
0011
1100
0001
1100
0010
1001
0100
0011
1001
1100
0010
1001
0100
,
1010
0001
1100
0011
1010
0100
1010
0001
1100
0010
1001
0110
1010
0001
1010
0101
,
1010
0001
0110
0011
1100
0001
1010
0100
1010
0001
0110
0011
1010
0100
1010
0001
,
0110
0001
1010
0011
1100
0010
1001
0100
1010
0001
1100
1010
0110
0001
1010
0100
,
1001
0000
0000
0100
0000
0000
0010
0000
0000
0001
0000
0000
1100
0000
0000
0010
0000
0000
1000
0000
0000
0001
0000
0000
1010
0000
0000
0100
0000
0000
1000
0000
0000
0000
0100
0000
0000
0000
0000
0001
0000
0000
0010
0000
0000
0100
0000
0000
,
1001
0000
0000
0000
0110
0000
0000
0000
1100
0000
0000
0000
0011
0000
0000
0000
1100
0000
0000
0000
0101
0000
0000
0000
0110
0000
0000
0000
1001
0000
0000
0000
1010
0000
0000
0000
0110
0000
0000
0000
0101
0000
0000
0000
0011
0000
0000
0000
1001
0000
0000
0000
1100
0000
0000
0000
0110
0000
0000
0000
0011
0000
0000
0100
,
1000
0000
0010
0000
0100
0000
1001
0100
0010
0000
0100
0000
1000
0001
0010
0001
,
1100
0000
0000
0000
0001
0000
0000
0000
0010
0000
0000
0000
0101
0000
0000
0000
1000
0000
0000
0000
0010
0000
0000
0000
0100
0000
0000
0000
0001
0000
0000
0001
,
1000
0100
0010
0000
0000
0000
0000
0000
0010
0000
0000
0000
0000
0000
0000
0000
1000
0000
0000
0000
0100
0000
0000
0000
0010
0000
0000
0000
0001
0000
0000
0000
0100
0000
0000
0000
0010
0000
0000
0000
1000
0000
0000
0000
0001
0000
0000
0000
0010
0000
0000
0000
0100
0000
0000
0000
1000
0000
0000
0000
0010
0000
0000
0000
,
1001
0000
0000
0000
0010
0000
0000
0000
0100
0000
0000
0000
1001
0000
0000
0000
0010
0000
0000
0000
1000
0000
0000
0000
0101
0000
0000
0000
0010
0000
0000
1000
,
0001
0010
0100
0000
0000
0000
0000
0000
1000
0000
0000
0000
0000
0000
0000
0000
0010
0000
0000
0000
0000
0000
0000
0000
1100
0000
0000
0000
0010
0000
0000
0000
0001
0000
0000
0000
0000
0000
0000
0000
0010
0000
0000
0000
0001
0000
0000
0000
1100
0000
0000
0000
0010
0000
0000
0000
1000
0000
0000
0000
0001
0000
0000
0000
,
1010
0000
1100
0000
0001
0000
1010
0000
0100
0000
1010
0000
0101
1000
0010
0100
,
1001
0010
0100
1000
0010
0100
1001
0010
0100
1000
0010
0100
0011
1000
0100
0010
,
1100
0010
0100
1000
0010
1000
0101
0010
0001
0100
0010
1000
0101
0010
1000
0001
,
1010
0000
0000
0000
0100
0000
0000
0000
0001
0000
0000
0000
1010
0000
0000
0000
0100
0000
0000
0000
1000
0000
0000
0000
0011
0000
0000
0000
0100
0000
0000
1000
,
0001
0010
0100
0000
0000
0000
0000
0000
1100
0000
0000
0000
0000
0000
0000
0000
0010
0000
0000
0000
0000
0000
0000
0000
1000
0000
0000
0000
0000
0000
0000
0000
0100
0000
0000
0000
0000
0000
0000
0000
0010
0000
0000
0000
0000
0000
0000
0000
1001
0000
0000
0000
0010
0000
0000
0000
0100
0000
0000
0000
1000
0000
0000
0000
,
0011
1000
0010
1100
0001
0010
0101
1000
,
0001
0000
0000
0000
0000
0000
0000
0000
0100
0000
0000
0000
0010
0000
0001
0000
1000
0010
0100
0000
0000
0000
0000
0000
1000
0000
0000
0000
0000
0000
0000
0000
0010
0000
0000
0000
1000
0000
0000
0000
0100
0000
0000
0000
0010
0000
0000
0000
0001
0000
0000
0000
0100
0000
0000
0000
0010
0000
0000
0000
0000
0000
1000
0000
,
0100
0001
0010
0000
0000
0000
0000
0000
1000
0000
0000
0000
0000
0000
0000
0000
0010
0000
0000
0000
0000
0000
0000
0000
1100
0000
0000
0000
0000
0000
0000
0000
0001
0000
0000
0000
0000
0000
0000
0000
0010
0000
0000
0000
0000
0000
0000
0000
0101
0000
0000
0000
0010
0000
0000
0000
1000
0000
0000
0000
0001
0000
0000
0000
,
0110
0000
0000
0000
0000
0000
0000
0000
1100
0000
0000
0000
0000
0000
0000
0000
0001
0000
0000
0000
0000
0000
0000
0000
1100
0000
0000
0000
0000
0000
0000
0000
0010
0000
0000
0000
0000
0000
0000
0000
1100
0000
0000
0000
0000
0000
0000
0000
0101
0000
0000
0000
0000
0000
0000
0000
0010
0000
0000
0000
0000
0000
0100
0010
,
0001
0000
0010
0000
0100
0001
1010
0100
0010
0001
0100
1000
0011
0100
0010
1000
,
0101
0000
0000
0000
0000
0000
0000
0000
1000
0000
0000
0000
0000
0000
0000
0000
0010
0000
0000
0000
0000
0000
0000
0000
1100
0000
0000
0000
0000
0000
0000
0000
0001
0000
0000
0000
0000
0000
0000
0000
0010
0000
0000
0000
0000
0000
0000
0000
0101
0000
0000
0000
0000
0000
0000
0000
1000
0000
0000
0000
0001
0000
1000
0100
,
0010
0000
0000
0000
0000
0000
0000
0000
0100
0000
0000
0000
0000
0000
0000
0000
0001
0000
0000
0000
0000
0000
0000
0000
1010
0000
0000
0000
0000
0000
0000
0000
0100
0000
0000
0000
0000
0000
0000
0000
1000
0000
0000
0000
0000
0000
0000
0000
0011
0000
0000
0000
0000
0000
0000
0000
0100
0000
0000
0000
0010
0000
0100
0010
,
0001
0000
1010
0000
0100
0000
1000
0000
0100
0000
0010
0000
0101
1000
0010
1000
,
0011
1000
0010
1100
0001
0010
0101
1000
,
0101
0000
1010
0000
0001
0000
0100
0000
0011
0000
0100
0010
0001
0100
0010
0000
,
0101
0000
0000
0000
0000
0000
0000
0000
1000
0000
0000
0000
0000
0000
0000
0000
0010
0000
0000
0000
0000
0000
0000
0000
1100
0000
0000
0000
0000
0000
0000
0000
0001
0000
0000
0000
0000
0000
0000
0000
0010
0000
0000
0000
0000
0000
0000
0000
0101
0000
0000
0000
0000
0000
0000
0000
0010
0000
0000
0000
0001
0000
0010
0100
,
1000
0100
0010
1001
0100
0010
0101
1000
,
1100
0000
0000
0000
0000
0000
0000
0000
0010
0000
0000
0000
0000
0000
0000
0000
0001
0000
0000
0000
0000
0000
0000
0000
1100
0000
0000
0000
0000
0000
0000
0000
0010
0000
0000
0000
0000
0000
0000
0000
1000
0000
0000
0000
0000
0000
0000
0000
0101
0000
0000
0000
0000
0000
0000
0000
0010
0000
0000
0000
1000
0000
0001
0010
,
0100
1000
0010
1100
0001
0010
0101
1000
,
0220
0000
0000
0330
;
